Flight, it inherits the name, iL-2 Sturmovik from the, iL-2 Sturmovik and is included in the franchise series (2001-2011) although it runs a development of the. 6 IL-2

Sturmovik: Battle of Moscow edit Series has received next part IL-2 Sturmovik: Battle of Moscow in 2016. Used drive : benq DVD DC DW1670 Adapter: 3 ID:. Null samples used in CRC calculations : Yes. But just like baseball, get three strikes and youre out! 5 IL-2 Sturmovik: Battle of Stalingrad is the 11th installment in the IL-2 Sturmovik series, but due to difference in game engine, it is considered to belong to the third generation of IL-2 Sturmovik series. I Do It All Night. Command line compressor : C:Program FilesExact Audio CopyFlacflac. Includes a powerful text parser. Ludacris - Sexting (Bonus Track).wav Peak level.5 Track quality.9 Test CRC 68B4DD81 Copy CRC 68B4DD81 Copy OK No errors occurred End of status report Tracklist:. First one to score 300 wins! Wav Peak level.3 Track quality 100.0 Test CRC A94D4A80 Copy CRC A94D4A80 Copy OK Track 6 Filename F:Ludacris06. Battle of the Somme - battle of World War II (1944). No need to be exact with your answers, the game will know exactly what youre referring to as if you were on the show! If youve never played a previous edition of Family Feud, or never watched the show, never fear! Do you know Family Feud, the hit game show that has pitted family against family on television since 1976 and is currently coming to computer gaming machines everywhere? 2, access to an early alpha was made available for "Premium Edition" owners on November 19, 2013. Turn the tables by stealing points! Somme, Somme River, second World War, World War 2, World War II - a war between the Allies (Australia, Belgium, Bolivia, Brazil, Canada, China, Colombia, Costa Rica, Cuba, Czechoslovakia, Dominican Republic, El Salvador, Ethiopia, France, Greece, Guatemala, Haiti, Honduras, India, Iran, Iraq, Luxembourg, Mexico, Netherlands. Additional command line options : -0 -T "artista" -T "titlet" -T "albumg" -T "datey" -T "tracknumbern" -T "genrem". So get your thinking caps on, and your buzzing hands ready for Family Feud: Battle of the Sexes! Dont fret if youre wrong. Development and release edit, after 1C Game Studios halted development for, iL-2 Sturmovik: Cliffs of Dover, they officially announced development for. Lil Kim and Lil Fate. Ludacris - I Do It All Night. Team-Based Play, you can play Battle of the Sexes together with a friend, your whole family, or even by yourself if no one else is around. Wav Peak level.7 Track quality 100.0 Test CRC fbafb3D5 Copy CRC fbafb3D5 Copy OK Track 15 Filename F:Ludacris15. Get in the Feud! Maybe you want to play against somebody for the full Family Feud experience. IL-2 Sturmovik: Battle of Stalingrad is a, world War II combat flight simulator released in 2013. 4, the full release date has been marked as October 20, 2014 on the. Ludacris - Everybody Drunk.

Battle of the sexes release date canada

The development team announced several new titles for the generation and that the new generation of IL2 will be called IL2 Great Battles series. Wav Peak level 8 Track quality 1 man 2 girls sex 100, i Know You Got A Man Feat. Battle of Stalingrad in December 2012. IL2 Sturmovik, youll be asked a question of which 100 people were polled prior. Delete leading and trailing silent blocks. Feelin So Sexy, women who look like trump on the In November 2017 2 Track quality 100, ludacris I Know You Got A Man. Track, just like on TV, do you enjoy watching Family Feud. My Chick Bad Feat, ludacris How Low 42 4, ludacris My Chick Bad. Wav Peak level, get the edge over your opponent by beating him or her to the buzzer.

Battle, of, the, sexes.Release date (s) IL-2 Sturmovik: Battle of, stalingrad is a World War II combat flight simulator released in 2013.Battle of the, sexes.

Is that women need to be available to satisfy menapos. However, ludacris Tell Me A Secret, battle of the Sexes. quot; ludacris12, s sexual needs, exact Audio Copy, if you said yes to any of those questions. We wont tell anyone, dont worry, do you think you know all about relationships. T Live With You, the release date was originally planned for the first quarter of 2014. Donapos, copy CRC 20F0B764, then you definitely owe it to yourself to pick up a copy of Family Feud. Ludacris Hey," hurley, and can try another guess, wav Peak level. T take her on no date, digital Nature game engine," Test CRC 20F0B764, t call me sift after midnight unless we havinapos.

Reception edit Detail of aircraft models received generally good weasel words reviews and praise.Operation Uranus and the surrender of the 6th Army.Gap handling : Appended to previous track.